你的位置: iPc 首页 > 全部文章 > 电影视频 > 阅读文章
科学X网    Office    苹果中国    微软中国    VPS

现在你的耳朵几岁了 - 有趣听力测试,你耳朵的年龄是否还年轻?

19
八月

近日,AsapScience 公布了一个名为“How old are your ears(现在你的耳朵有几岁)”的听力测试视频。如果你能听到视频中列出的所有声音,那么证明你耳朵的年龄还是非常年轻的,20岁都不到……

你的耳朵几岁了

视频介绍道,“这种听力是无法持续一辈子的。耳朵中的毛细胞专门负责听取不同频率的声音,然后再将信号传输给大脑。不过随着年龄的增长,不断入侵的噪音、过高的声音则会对这些毛细胞产生破坏作用。高频率声音则是人耳毛细胞最先接受到的声波,这也就是年龄越大只能听到高频率声音的原因。”

现在你的耳朵几岁了?

PS 视频已经更新

关于本文
各种回音
  1. 说: 回复他/她

    尼玛,我耳朵已经40岁了啊

    • 说:

      通过抽取音频流查看频谱,该音频中只有8000Hz、12000Hz和15000Hz的声音,15000Hz以上的已经被截断!!!!!!
      不知道那些说全部都能听到的人是不是幻听了。

    • 说:

      我以为怎么回事,15000还有声音,16000一点动静都没有了

    • 说:

      16000Hz我能听见啊

  2. 说: 回复他/她

    全部都听的到. 可是还是感觉听电话时手机音量要调的比以前高了.

  3. 说: 回复他/她

    尼玛,耳朵30了

  4. 说: 回复他/她

    尼玛,我只能听到50岁的,40、30的只有嗒嗒声

    • 说:

      你祇能聽到50?40歲那段沒有被砍掉啊

  5. 说: 回复他/她

    50了。。。。。无语……

  6. 说: 回复他/她

    我是不是聋了 除了开始那个8000HZ 后面一个都听不到

  7. 说: 回复他/她

    会不会这个视频的时候,后边的都已经被弄没了?

  8. 说: 回复他/她

    考,40岁了呀

  9. 说: 回复他/她

    这绝对跟音响有关系…耳机能听到50 电脑外放40 Bose音响20…这是什么节奏

  10. 说: 回复他/她

    垃圾音箱听不到12000之后的了

  11. 说: 回复他/她

    感觉是要用耳机听…
    音响肯定不行…

  12. 说: 回复他/她

    40岁了啊!!!伤心

  13. 说: 回复他/她

    40岁….我的耳朵….

  14. 说: 回复他/她

    有些频段耳机跟不上,不行的,回去换个耳机试试

  15. 说: 回复他/她

    目测,呃……不对,是耳测,此视频的音频八成是低比特率的MP3,高频都被砍了

    • 说:

      特意把视频下了下来看编码信息
      D:\j7qzZUtkuyE9TiD22zktX7.mp4
      General
      Complete name : D:\j7qzZUtkuyE9TiD22zktX7.mp4
      Format : MPEG-4
      Format profile : Base Media / Version 2
      Codec ID : mp42
      File size : 6.19 MiB
      Duration : 1mn 37s
      Overall bit rate mode : Variable
      Overall bit rate : 534 Kbps
      Encoded date : UTC 2013-08-15 01:21:09
      Tagged date : UTC 2013-08-15 01:21:25
      Video #1
      ID : 1
      Format : AVC
      Format/Info : Advanced Video Codec
      Format profile : Main@L3.0
      Format settings, CABAC : Yes
      Format settings, ReFrames : 3 frames
      Codec ID : avc1
      Codec ID/Info : Advanced Video Coding
      Duration : 1mn 37s
      Bit rate mode : Variable
      Bit rate : 501 Kbps
      Width : 640 pixels
      Height : 352 pixels
      Display aspect ratio : 16:9
      Frame rate mode : Constant
      Frame rate : 25.000 fps
      Color space : YUV
      Chroma subsampling : 4:2:0
      Bit depth : 8 bits
      Scan type : Progressive
      Bits/(Pixel*Frame) : 0.089
      Stream size : 5.79 MiB (94%)
      Writing library : TV.SOHU.COM
      Encoded date : UTC 2013-08-15 01:21:09
      Tagged date : UTC 2013-08-15 01:21:25
      Color primaries : BT.601 NTSC
      Transfer characteristics : BT.709
      Matrix coefficients : BT.601
      Audio #2
      ID : 2
      Format : AAC
      Format/Info : Advanced Audio Codec
      Format profile : HE-AACv2 / HE-AAC / LC
      Codec ID : 40
      Duration : 1mn 37s
      Bit rate mode : Variable
      Bit rate : 32.0 Kbps
      Maximum bit rate : 34.2 Kbps
      Channel(s) : 2 channels / 1 channel / 1 channel
      Channel positions : Front: L R / Front: C / Front: C
      Sampling rate : 44.1 KHz / 44.1 KHz / 22.05 KHz
      Compression mode : Lossy
      Stream size : 380 KiB (6%)
      Encoded date : UTC 2013-08-15 01:21:09
      Tagged date : UTC 2013-08-15 01:21:25

    • 说:

      通过抽取音频流查看频谱,该音频中只有8000Hz、12000Hz和15000Hz的声音,15000Hz以上的已经被截断!!!!!!
      不知道那些说全部都能听到的人是不是幻听了。

    • 说:

      技术帝!我也怀疑这视频的质量,之后下了个专业测频率的软件,我能听到最高18900Hz

    • 说:

      我能听到16000的 确实是听到 后面就不行了

  16. 说: 回复他/她

    难怪我常常听不清别人的话……我的耳朵四十岁了

  17. 说: 回复他/她

    四十岁之后是不是没声音了?

  18. 说: 回复他/她

    这视频本来就有问题。

  19. 说: 回复他/她

    其实这是一个心理测试,全部都能听到的都是幻听

  20. 说: 回复他/她

    耳机的频响上限都只到18K。。。

  21. 说: 回复他/她

    额,如果放很响,就能听到更多细节了吧??会不会和音箱的质量有关?

    • 说:

      不是的, 频率和音量不一样,声音的频率是让空气产生了震动, 有一定波动范围的空气震动可以让耳朵感受到, 所以就有了”声音”

      而生活中有很多震动是我们耳朵感受不到的, 而例如狗狗的耳朵可以感受得到更加广的频率范围.

  22. 说: 回复他/她

    16000Hz到19000Hz听见的都是滴滴的声音,不知道是不是正常,我是用耳机听的

  23. 说: 回复他/她

    听原版的吧 应该都能听到
    http://www.youtube.com/watch?v=VxcbppCX6Rk

    • 说:

      原版的可以听到,tmd一开始把送我好郁闷。
      PS:ipc最近发文章越来越不负责了

    • 说:

      原版也是50 我x

    • 说:

      啊, 原版只能听到40的, 优酷版 可以到30

  24. 说: 回复他/她

    这种视频中的音频测试都是处理过的,应该都听不到才对。如果听到了的,估计是幻听了。

  25. 说: 回复他/她

    确实听到了呀,只不过后面的不是连续的。

  26. 说: 回复他/她

    17000Hz之后全都只有“滴、滴、滴、滴”了

  27. 说: 回复他/她

    音响调到最高了,50之后只能听到滴滴滴的声音了

  28. 说: 回复他/她

    老子第一遍听三十岁,第二遍四十,第三遍五十。卧槽这个毁坏人的听力

  29. 说: 回复他/她

    还真的只能听到16000的

  30. 说: 回复他/她

    1900都还有声音晚上经常听到翁的声音不知道是什么声音,感觉是电流声

  31. 说: 回复他/她

    我现在才十一岁,可耳朵。。40岁,!我从不用过耳机啊

  32. 说: 回复他/她

    开手机频率计…后面2个压根没有了…